GoT S08E04 – The Last Of The Starks

Bueno…ocurrió de nuevo…se filtraron imágenes y algunos videos del episodio, incluso un grupo de Facebook de origen tailandés afirma tener el episodio y pide dinero a cambio del mismo.

Y podríamos decir que todo se fue al cuerno…se viene Daenerys loca, quema de Desembarco, traiciones por parte de Varys…todo metido en los próximos dos episodios…dos episodios y se cabo el misterio.

Quiero muchos efectos especiales, mucha parafernalia, ya no pido nada mas que me entretengan y pongan toda la carne en el asador.

Descarga Torrent todas las versiones

Subtitulos todas las versiones

Format : Matroska
Format version : Version 4
File size : 3.98 GiB
Duration : 1 h 18 min
Overall bit rate : 7 228 kb/s
Encoded date : UTC 2019-05-06 01:01:21
Writing application : mkvmerge v33.1.0 (‘Primrose’) 64-bit
Writing library : libebml v1.3.7 + libmatroska v1.5.0
IsTruncated : Yes

Video
ID : 1
Format : AVC
Format/Info : Advanced Video Codec
Format profile : High@L4
Format settings : CABAC / 4 Ref Frames
Format settings, CABAC : Yes
Format settings, RefFrames : 4 frames
Codec ID : V_MPEG4/ISO/AVC
Duration : 1 h 18 min
Bit rate mode : Constant
Bit rate : 6 444 kb/s
Nominal bit rate : 10 000 kb/s
Width : 1 920 pixels
Height : 1 080 pixels
Display aspect ratio : 16:9
Frame rate mode : Constant
Frame rate : 23.976 (24000/1001) FPS
Color space : YUV
Chroma subsampling : 4:2:0
Bit depth : 8 bits
Scan type : Progressive
Bits/(Pixel*Frame) : 0.130
Stream size : 3.55 GiB (89%)
Default : Yes
Forced : No
Color range : Limited
Color primaries : BT.709
Transfer characteristics : BT.709
Matrix coefficients : BT.709

Audio
ID : 2
Format : E-AC-3
Format/Info : Enhanced AC-3
Commercial name : Dolby Digital Plus
Codec ID : A_EAC3
Duration : 1 h 18 min
Bit rate mode : Constant
Bit rate : 640 kb/s
Channel(s) : 6 channels
Channel layout : L R C LFE Ls Rs
Sampling rate : 48.0 kHz
Frame rate : 31.250 FPS (1536 SPF)
Compression mode : Lossy
Delay relative to video : 6 ms
Stream size : 361 MiB (9%)
Language : English
Service kind : Complete Main
Default : Yes
Forced : No

Text #1
ID : 3
Format : UTF-8
Codec ID : S_TEXT/UTF8
Codec ID/Info : UTF-8 Plain Text
Language : English
Default : No
Forced : No

Text #2
ID : 4
Format : UTF-8
Codec ID : S_TEXT/UTF8
Codec ID/Info : UTF-8 Plain Text
Title : SDH
Language : English
Default : No
Forced : No

Menu
00:00:00.000 : en:Ratings
00:00:02.926 : en:Previously On
00:01:12.926 : en:Opening Credits
00:03:06.926 : en:The shields that guarded the realms of men
00:08:52.926 : en:A feast to celebrate
00:12:11.926 : en:A person that men will want to follow
00:17:50.926 : en:Celebrations and confessions
00:22:23.926 : en:The Lady of Storm’s End
00:24:22.926 : en:Follow the drinking game rules
00:27:24.926 : en:Swearing to secrecy
00:31:55.926 : en:A plan of action
00:36:05.926 : en:The importance of family
00:38:26.926 : en:The word of a Lannister
00:42:38.926 : en:Unfinished business in King’s Landing
00:43:58.926 : en:The North and King’s Landing must be allies
00:47:17.926 : en:A friend’s farewell
00:50:42.926 : en:A secret can quickly spread
00:52:57.926 : en:The unthinkable happens
00:55:52.926 : en:So much for the breaker of chains
00:57:57.926 : en:Tyrants or Queens
01:04:03.926 : en:What it means to be a good man
01:07:52.926 : en:An opportunity to surrender
01:16:54.926 : en:End Credits
01:18:13.926 : en:Next Time

 

Deja un mensaje