GoT Se08E02 Filtrado!!! A Knight of the Seven Kingdoms

Y sucedió de nuevo….

Miren la sección de comentarios mas abajo, ahí coloque el link de descarga del episodio.

Format : Matroska
Format version : Version 4
File size : 3.04 GiB
Duration : 59 min 11 s
Overall bit rate : 7 358 kb/s
Encoded date : UTC 2019-04-22 01:08:59
Writing application : mkvmerge v32.0.0 (‘Astral Progressions’) 64-bit
Writing library : libebml v1.3.7 + libmatroska v1.5.0

Video
ID : 1
Format : AVC
Format/Info : Advanced Video Codec
Format profile : High@L4
Format settings : CABAC / 4 Ref Frames
Format settings, CABAC : Yes
Format settings, RefFrames : 4 frames
Codec ID : V_MPEG4/ISO/AVC
Duration : 59 min 11 s
Bit rate mode : Constant
Bit rate : 6 716 kb/s
Nominal bit rate : 10 000 kb/s
Width : 1 920 pixels
Height : 1 080 pixels
Display aspect ratio : 16:9
Frame rate mode : Constant
Frame rate : 23.976 (24000/1001) FPS
Color space : YUV
Chroma subsampling : 4:2:0
Bit depth : 8 bits
Scan type : Progressive
Bits/(Pixel*Frame) : 0.135
Stream size : 2.78 GiB (91%)
Default : Yes
Forced : No
Color range : Limited
Color primaries : BT.709
Transfer characteristics : BT.709
Matrix coefficients : BT.709

Audio
ID : 2
Format : E-AC-3
Format/Info : Enhanced AC-3
Commercial name : Dolby Digital Plus
Codec ID : A_EAC3
Duration : 59 min 11 s
Bit rate mode : Constant
Bit rate : 640 kb/s
Channel(s) : 6 channels
Channel layout : L R C LFE Ls Rs
Sampling rate : 48.0 kHz
Frame rate : 31.250 FPS (1536 SPF)
Compression mode : Lossy
Delay relative to video : 24 ms
Stream size : 271 MiB (9%)
Language : English
Service kind : Complete Main
Default : Yes
Forced : No

Text #1
ID : 3
Format : UTF-8
Codec ID : S_TEXT/UTF8
Codec ID/Info : UTF-8 Plain Text
Duration : 59 min 2 s
Bit rate : 52 b/s
Count of elements : 778
Stream size : 22.5 KiB (0%)
Language : English
Default : No
Forced : No

Text #2
ID : 4
Format : UTF-8
Codec ID : S_TEXT/UTF8
Codec ID/Info : UTF-8 Plain Text
Duration : 59 min 2 s
Bit rate : 55 b/s
Count of elements : 864
Stream size : 23.8 KiB (0%)
Title : SDH
Language : English
Default : No
Forced : No

Menu
00:00:00.000 : en:Previously On
00:00:42.928 : en:Opening Credits
00:02:36.928 : en:The fate of a Lannister
00:08:08.928 : en:The faces of death
00:10:51.928 : en:Jaime makes a round of apologies
00:17:10.928 : en:What about the North
00:23:40.928 : en:The North plans for battle
00:31:06.928 : en:Night’s watch at Winterfell
00:34:51.928 : en:Sharing one last drink
00:38:50.928 : en:Seize the night
00:44:36.928 : en:A knight of the Seven Kingdoms
00:48:46.928 : en:Samwell passes on a gift to Jorah
00:51:04.928 : en:How about a song
00:52:53.928 : en:Jon confides in Danny
00:57:17.928 : en:End Credits
00:58:38.928 : en:Next On
00:59:10.928 : en:Inside the Episode

Miren en la sección de comentarios!!!!!

Descarga Torrent todas las versiones

Subtitulos todas las versiones

 

Deja un mensaje