GoT S08E06- Final de Temporada- The Iron Throne

Y se acabo…9 años de espera para este final, el cual si uno había leído las filtraciones, no lo atrapo desprevenido….

Format : Matroska
Format version : Version 4
File size : 4.37 GiB
Duration : 1 h 19 min
Overall bit rate : 7 875 kb/s
Encoded date : UTC 2019-05-20 01:03:09
Writing application : mkvmerge v33.1.0 (‘Primrose’) 64-bit
Writing library : libebml v1.3.7 + libmatroska v1.5.0

Video
ID : 1
Format : AVC
Format/Info : Advanced Video Codec
Format profile : High@L4
Format settings : CABAC / 4 Ref Frames
Format settings, CABAC : Yes
Format settings, RefFrames : 4 frames
Codec ID : V_MPEG4/ISO/AVC
Duration : 1 h 19 min
Bit rate mode : Constant
Bit rate : 7 232 kb/s
Nominal bit rate : 10 000 kb/s
Width : 1 920 pixels
Height : 1 080 pixels
Display aspect ratio : 16:9
Frame rate mode : Constant
Frame rate : 23.976 (24000/1001) FPS
Color space : YUV
Chroma subsampling : 4:2:0
Bit depth : 8 bits
Scan type : Progressive
Bits/(Pixel*Frame) : 0.145
Stream size : 4.02 GiB (92%)
Default : Yes
Forced : No
Color range : Limited
Color primaries : BT.709
Transfer characteristics : BT.709
Matrix coefficients : BT.709

Audio
ID : 2
Format : E-AC-3
Format/Info : Enhanced AC-3
Commercial name : Dolby Digital Plus
Codec ID : A_EAC3
Duration : 1 h 19 min
Bit rate mode : Constant
Bit rate : 640 kb/s
Channel(s) : 6 channels
Channel layout : L R C LFE Ls Rs
Sampling rate : 48.0 kHz
Frame rate : 31.250 FPS (1536 SPF)
Compression mode : Lossy
Delay relative to video : 2 ms
Stream size : 364 MiB (8%)
Language : English
Service kind : Complete Main
Default : Yes
Forced : No

Text #1
ID : 3
Format : UTF-8
Codec ID : S_TEXT/UTF8
Codec ID/Info : UTF-8 Plain Text
Duration : 1 h 15 min
Bit rate : 27 b/s
Count of elements : 517
Stream size : 15.1 KiB (0%)
Language : English
Default : No
Forced : No

Text #2
ID : 4
Format : UTF-8
Codec ID : S_TEXT/UTF8
Codec ID/Info : UTF-8 Plain Text
Duration : 1 h 17 min
Bit rate : 29 b/s
Count of elements : 629
Stream size : 16.7 KiB (0%)
Title : SDH
Language : English
Default : No
Forced : No

Menu
00:00:00.000 : en:Ratings
00:00:03.858 : en:Previously On
00:00:57.858 : en:Opening Credits
00:02:56.858 : en:What remains of King’s Landing
00:05:52.858 : en:Following the queen’s orders
00:07:28.858 : en:The last of House Lannister
00:11:53.858 : en:Breaking the wheel
00:21:13.858 : en:Love is the death of duty
00:30:18.858 : en:Building a new world together
00:42:44.858 : en:Determining what’s best for the kingdom
00:56:16.858 : en:Everyone is where they’re supposed to be
01:03:42.858 : en:Honoring a legacy
01:05:45.858 : en:A song of ice and fire
01:11:15.858 : en:And now my watch begins
01:12:30.858 : en:The last of house Stark
01:18:08.858 : en:End Credits

 

 

 

Descarga Torrent todas las versiones

Subtitulos todas las versiones

Deja un mensaje