Game of Thrones S08E01- Winterfell

Finalmente se emitió el primer episodio. Realmente prometedor, momentos bien logrados. Esperemos ver como sigue todo lo planteado en este primer episodio.  El posteo se ira actualizando a medida de las algunas cosas vayan saliendo.

Miren en la sección de comentarios…

General
Unique ID : 85388012163506540451964967734163197036 (0x403D2209200EB7D088D853D7172ECC6C)
Complete name : Games Of Thrones.S08.EP01.1080p.AMZN.DL.AVC.H264.DDP.5.1.640Kbps.ESUBS.Telly\Games Of Thrones.S08.EP01.1080p.AMZN.DL.AVC.H264.DDP.5.1.640Kbps.ESUBS.Telly.mkv
Format : Matroska
Format version : Version 4
File size : 3.34 GiB
Duration : 1 h 4 min
Overall bit rate : 7 410 kb/s
Movie name : www.Tellytorrent.net
Writing application : Lavf58.26.100
Writing library : Lavf58.26.100
ErrorDetectionType : Per level 1

Video
ID : 1
Format : AVC
Format/Info : Advanced Video Codec
Format profile : High@L4
Format settings : CABAC / 4 Ref Frames
Format settings, CABAC : Yes
Format settings, RefFrames : 4 frames
Codec ID : V_MPEG4/ISO/AVC
Duration : 1 h 4 min
Bit rate mode : Constant
Bit rate : 6 766 kb/s
Nominal bit rate : 10 000 kb/s
Width : 1 920 pixels
Height : 1 080 pixels
Display aspect ratio : 16:9
Frame rate mode : Constant
Frame rate : 23.976 (24000/1001) FPS
Color space : YUV
Chroma subsampling : 4:2:0
Bit depth : 8 bits
Scan type : Progressive
Bits/(Pixel*Frame) : 0.136
Stream size : 3.05 GiB (91%)
Language : English
Default : Yes
Forced : No
Color range : Limited
Color primaries : BT.709
Transfer characteristics : BT.709
Matrix coefficients : BT.709

Audio
ID : 2
Format : E-AC-3
Format/Info : Enhanced AC-3
Commercial name : Dolby Digital Plus
Codec ID : A_EAC3
Duration : 1 h 4 min
Bit rate mode : Constant
Bit rate : 640 kb/s
Channel(s) : 6 channels
Channel layout : L R C LFE Ls Rs
Sampling rate : 48.0 kHz
Frame rate : 31.250 FPS (1536 SPF)
Bit depth : 32 bits
Compression mode : Lossy
Delay relative to video : 4 ms
Stream size : 296 MiB (9%)
Language : English
Service kind : Complete Main
Default : Yes
Forced : No

Text
ID : 3
Format : UTF-8
Codec ID : S_TEXT/UTF8
Codec ID/Info : UTF-8 Plain Text
Duration : 1 h 4 min
Bit rate : 54 b/s
Count of elements : 866
Stream size : 25.9 KiB (0%)
Language : English
Default : No
Forced : No

 

Descarga Torrent todas las versiones

Subtitulos todas las versiones

Deja un mensaje